Trailer phim

Góc Nhìn Quyến Rũ Góc Nhìn Quyến Rũ
10 10 999
xem phim online, goc nhin quyen ru

Góc Nhìn Quyến Rũ

( Hình thức phim : Trailer )
Diễn viên: Kwak Hyeon-hwa, Ha Na-kyeong, Oh Seong-tae, Lee Geon-II
Thể loại: Tình Cảm
Quốc gia: Phim Hàn Quốc
Ngày ra mắt: 09/11/2012
Đánh giá:
  (23 Bình chọn)

Giới thiệu: Phim kể về một trưởng phòng tại trung tâm môi giới Ara (Ha Na Kyung thủ vai) là một cô gái thích sống phóng khoáng nên thường sắp xếp các buổi gặp gỡ bí mật với khách hàng nam để tận hưởng sự vui thú của việc hẹn hò nhiều bạn trai.
xem phim online, phim truc tuyen

House With A Nice View 2012 720p HDRip XviD-MAX

Video
ID : 0
Format : MPEG-4 Visual
Format profile : Advanced [email protected]
Format settings, BVOP : No
Format settings, QPel : No
Format settings, GMC : No warppoints
Format settings, Matrix : Default (MPEG)
Codec ID : XVID
Codec ID/Hint : XviD
Duration : 1h 31mn
Bit rate : 2 109 Kbps
Width : 1 280 pixels
Height : 720 pixels
Display aspect ratio : 16:9
Frame rate : 29.970 fps
Color space : YUV
Chroma subsampling : 4:2:0
Bit depth : 8 bits
Scan type : Progressive
Compression mode : Lossy
Bits/(Pixel*Frame) : 0.076
Stream size : 1.35 GiB (94%)
Writing library : XviD 1.2.1 (UTC 2008-12-04)

Audio
ID : 1
Format : MPEG Audio
Format version : Version 1
Format profile : Layer 3
Mode : Joint stereo
Mode extension : MS Stereo
Codec ID : 55
Codec ID/Hint : MP3
Duration : 1h 31mn
Bit rate mode : Constant
Bit rate : 128 Kbps
Channel(s) : 2 channels
Sampling rate : 44.1 KHz
Compression mode : Lossy
Stream size : 83.8 MiB (6%)
Alignment : Aligned on interleaves
Interleave, duration : 26 ms (0.78 video frame)
Writing library : LAME3.98.2

http://up.4share.vn/f/5e6c686a6d69696d/HousewithaNiceView.2012.Xvid.720p%20Max.avi.file

xem trailer





XP Movie BÌNH LUẬN - FACEBOOK

phim online

Phim đề cử


Loading
| | | | | | | | | | | | | | | | | | | | | | | | | | | | | | | | | | | | | | | | | | | | | | | | | | | | | |